[ADZPlus] Etotama - 02 [BD 1080p FLAC].mkv


File Size1.656 GB (1,777,840,007 bytes)
DownloadJheberg: Part1, Part2
MultiUp: Part1
  • ClickNupload
  • Fichier
  • Filerio
  • Free
  • Fufox
  • HugeFiles
  • Mightyupload
  • ToutBox
  • Turbobit
  • UpToBox
  • Uplea
  • UploadBaz
  • Uploadable
  • Uploaded
  • Uppit
  • Userscloud
, Part2
  • ClickNupload
  • Fichier
  • Filerio
  • Free
  • Fufox
  • HugeFiles
  • Mightyupload
  • ToutBox
  • Turbobit
  • UpToBox
  • Uplea
  • UploadBaz
  • Uploadable
  • Uploaded
  • Uppit
  • Userscloud

OpenLoad: Part1, Part2
Sendspace: Part1, Part2, Part3, Part4, Part5, Part6
SolidFiles: Part1, Part2, Part3, Part4
UsersCloud: Part1, Part2
Encrypted DownloadDirect: Part1, Part2
Password:
HashesCRC32: 64E76B42, MD5: 487E453D1DAAE1AC94EDF0D82B30C264, SHA1: 5D3BC9C1D658CDE5716A47992A62390D23F0E491, SHA256: EB77C615824BC83C675DF51FC40D45A807F1D5E44C2C6F1F8B35997D603064C3, ED2K: A937C5B2F209D04E50EE52D38C4FF0C4
Screenshots
screenshotscreenshotscreenshotscreenshotscreenshot
SubtitlesAll Attachments | eng [ASS]
Additional Info
General
Unique ID                                : 245562370866399829710114480931451918822 (0xB8BD97A2B7DA5E4DA8654F0C5F3759E6)
Complete name                            : [ADZPlus] Etotama - 02 [BD 1080p FLAC].mkv
Format                                   : Matroska
Format version                           : Version 4 / Version 2
File size                                : 1.66 GiB
Duration                                 : 23 min 54 s
Overall bit rate mode                    : Variable
Overall bit rate                         : 9 912 kb/s
Encoded date                             : UTC 2016-12-31 00:22:40
Writing application                      : mkvmerge v9.4.0 ('Knurl') 64bit
Writing library                          : libebml v1.3.4 + libmatroska v1.4.5
Attachments                              : segoeuib.ttf / seguisb.ttf / Ubuntu-R.ttf / yumin.ttf / yumindb.ttf / LT_3italic.ttf / PPETRIAL.ttf / segoeui.ttf

Video
ID                                       : 1
Format                                   : MPEG-4 Visual
Format profile                           : Simple@L1
Format settings, BVOP                    : No
Format settings, QPel                    : No
Format settings, GMC                     : No warppoints
Format settings, Matrix                  : Default (H.263)
Codec ID                                 : V_MS/VFW/FOURCC / DIVX
Codec ID/Info                            : Project Mayo
Codec ID/Hint                            : DivX 4
Duration                                 : 23 min 54 s
Bit rate                                 : 8 409 kb/s
Width                                    : 1 920 pixels
Height                                   : 1 080 pixels
Display aspect ratio                     : 16:9
Frame rate mode                          : Constant
Frame rate                               : 23.976 (23976/1000) FPS
Color space                              : YUV
Chroma subsampling                       : 4:2:0
Bit depth                                : 8 bits
Scan type                                : Progressive
Compression mode                         : Lossy
Bits/(Pixel*Frame)                       : 0.169
Stream size                              : 1.40 GiB (85%)
Writing library                          : Lavc53.8.0
Default                                  : Yes
Forced                                   : No

Audio
ID                                       : 2
Format                                   : FLAC
Format/Info                              : Free Lossless Audio Codec
Codec ID                                 : A_FLAC
Duration                                 : 23 min 54 s
Bit rate mode                            : Variable
Bit rate                                 : 1 340 kb/s
Channel(s)                               : 2 channels
Channel positions                        : Front: L R
Sampling rate                            : 44.1 kHz
Frame rate                               : 9.570 FPS (4608 spf)
Bit depth                                : 24 bits
Stream size                              : 229 MiB (14%)
Writing library                          : Lavf55.19.100
Default                                  : Yes
Forced                                   : No

Text
ID                                       : 3
Format                                   : ASS
Codec ID                                 : S_TEXT/ASS
Codec ID/Info                            : Advanced Sub Station Alpha
Duration                                 : 23 min 54 s
Bit rate                                 : 5 924 b/s
Count of elements                        : 2257
Compression mode                         : Lossless
Stream size                              : 1.01 MiB (0%)
Language                                 : English
Default                                  : Yes
Forced                                   : No

Menu
00:00:00.000                             : :Prologue
00:00:59.000                             : :OP
00:02:30.000                             : :OP Card
00:02:39.000                             : :Part A
00:12:39.000                             : :Eyecatch
00:12:49.000                             : :Part B
00:22:05.000                             : :ED
00:23:35.000                             : :Next Time
00:23:50.000                             : :ED Card

Other Files in this Torrent
[ADZPlus] Etotama - 02 [BD 1080p FLAC].mkv
beta
Anime DDL+NZB mirror
Current Time: 17/11/2019 22:39



About/FAQs