File Size587.3 MB (615,788,886 bytes)
DownloadClickNUpload | DownloadGG | DropAPK
MultiUp: Part1
  • BdUpload
  • DownAce
  • Fichier
  • FileCloud
  • Filerio
  • FilesCdn
  • IndiShare
  • Kbagi
  • Turbobit
  • UpToBox
  • Uppit
, Part2
  • BdUpload
  • DownAce
  • Fichier
  • FileCloud
  • Filerio
  • FilesCdn
  • IndiShare
  • Kbagi
  • Turbobit
  • UpToBox
  • Uppit

SolidFiles: Part1, Part2
ZippyShare: Part1, Part2
HashesCRC32: 803617A1, MD5: B0D02B3BC295DCCD3FA6CBF701B8F864, SHA1: D8FA2518EA8FDC412BCA432F08270DA339B9E067, SHA256: DC3A81E4678AEFEECD9F01BDAFC71017D4EDE23D85EEBC3811BE9F8FE6666C6B, ED2K: D143F54EA8F5386C796FCD939E98D63C
Screenshots
screenshotscreenshotscreenshotscreenshotscreenshot
Additional Info
General
Unique ID                                : 216513280555871813293004342770375530893 (0xA2E2F0E7DDE79534DC8884065C27198D)
Complete name                            : Act 39 - Infinite - Journey.mkv
Format                                   : Matroska
Format version                           : Version 2
File size                                : 587 MiB
Duration                                 : 23 min 52 s
Overall bit rate mode                    : Variable
Overall bit rate                         : 3 440 kb/s
Encoded date                             : UTC 2021-07-10 18:42:29
Writing application                      : mkvmerge v42.0.0 ('Overtime') 64-bit
Writing library                          : libebml v1.3.10 + libmatroska v1.5.2
Attachments                              : 5221.ttf / A Year Without Rain.TTF / Cheboyga.ttf / Cicle Gordita.ttf / coah.ttf / D3Streetism.TTF / Dan_Hand.ttf / DJB Geeks Who Wear Glasses.ttf / DOTMATRI.TTF / erasdust.ttf / FRABK.TTF / FRADM.TTF / framd.ttf / hapole_pencil.ttf / lazy_dog.ttf / lemon squeezy .ttf / LT_0_.ttf / Mermaid1001.ttf / njnaruto.ttf / OpenSans-Semibold.ttf / OpenSans-SemiboldItalic.ttf / Pen_of_Truth___FREE_FONT_by_Sonira.ttf / PIXEARG.TTF / Polo-SemiBold.ttf / RomanAntique.ttf / Sanford-0103_demo.ttf / SCHLBKB.TTF / watermark.ttf / ArialRoundedMTStd-ExtraBold.otf / DeBorstel Brush-Reduced.otf / FranklinGothicBT-Roman.otf

Video
ID                                       : 1
Format                                   : AVC
Format/Info                              : Advanced Video Codec
Format profile                           : High 10@L3.1
Format settings                          : CABAC / 4 Ref Frames
Format settings, CABAC                   : Yes
Format settings, ReFrames                : 4 frames
Codec ID                                 : V_MPEG4/ISO/AVC
Duration                                 : 23 min 52 s
Bit rate                                 : 2 658 kb/s
Width                                    : 1 280 pixels
Height                                   : 720 pixels
Display aspect ratio                     : 16:9
Frame rate mode                          : Constant
Frame rate                               : 23.976 (24000/1001) FPS
Color space                              : YUV
Chroma subsampling                       : 4:2:0
Bit depth                                : 10 bits
Scan type                                : Progressive
Bits/(Pixel*Frame)                       : 0.120
Stream size                              : 454 MiB (77%)
Writing library                          : x264 core 164 r3065 ae03d92
Encoding settings                        : cabac=1 / ref=3 / deblock=1:1:-1 / analyse=0x3:0x113 / me=hex / subme=7 / psy=1 / psy_rd=1.00:0.00 / mixed_ref=1 / me_range=16 / chroma_me=1 / trellis=1 / 8x8dct=1 / cqm=0 / deadzone=21,11 / fast_pskip=1 / chroma_qp_offset=-2 / threads=6 / lookahead_threads=1 / sliced_threads=0 / nr=0 / decimate=1 / interlaced=0 / bluray_compat=0 / constrained_intra=0 / bframes=3 / b_pyramid=2 / b_adapt=1 / b_bias=0 / direct=1 / weightb=1 / open_gop=0 / weightp=2 / keyint=240 / keyint_min=23 / scenecut=40 / intra_refresh=0 / rc_lookahead=40 / rc=crf / mbtree=1 / crf=18.0 / qcomp=0.60 / qpmin=0 / qpmax=69 / qpstep=4 / ip_ratio=1.40 / aq=1:1.00
Default                                  : Yes
Forced                                   : No

Audio
ID                                       : 2
Format                                   : FLAC
Format/Info                              : Free Lossless Audio Codec
Codec ID                                 : A_FLAC
Duration                                 : 23 min 52 s
Bit rate mode                            : Variable
Bit rate                                 : 766 kb/s
Channel(s)                               : 2 channels
Channel layout                           : L R
Sampling rate                            : 48.0 kHz
Frame rate                               : 11.719 FPS (4096 SPF)
Bit depth                                : 16 bits
Compression mode                         : Lossless
Stream size                              : 131 MiB (22%)
Writing library                          : libFLAC 1.3.2 (UTC 2017-01-01)
Language                                 : Japanese
Default                                  : Yes
Forced                                   : No

Other Files in this Torrent
Act 39 - Infinite - Journey.mkv
beta
Anime DDL+NZB mirror
Current Time: 12/06/2024 22:46



About/FAQs

Discord