[-__-'] Girls und Panzer 02 [BD 1080p FLAC 2.1] [9162EB86].mkv


File Size1.069 GB (1,148,173,255 bytes)
DownloadJheberg: Part1, Part2
MultiUp: Part1, Part2
Sendspace: Part1, Part2, Part3, Part4
SolidFiles: Part1, Part2, Part3
UsersCloud: Part1, Part2
HashesCRC32: 9162EB86, MD5: B41A76189ECE8A3F45F237B7D177F1BC, SHA1: D244968E0AE953CB88EB943B68AB56E645556D80, SHA256: 3636AAFFBB48873EF8BED3E2D007A501B0FFEFB15D0766150A92AA9B7C9C2176, ED2K: D6182C0F4057F90334E0FF3109DCFC3A
Screenshots
screenshotscreenshotscreenshotscreenshotscreenshot
SubtitlesAll Attachments | eng [ASS], goh [ASS]
Additional Info
General
Unique ID                                : 210833677608706992384205753191055318657 (0x9E9D16DC4FC9CE14955B02CBEC415E81)
Complete name                            : [-__-'] Girls und Panzer 02 [BD 1080p FLAC 2.1] [9162EB86].mkv
Format                                   : Matroska
Format version                           : Version 4 / Version 2
File size                                : 1.07 GiB
Duration                                 : 24mn 11s
Overall bit rate mode                    : Variable
Overall bit rate                         : 6 326 Kbps
Encoded date                             : UTC 2016-05-13 08:32:29
Writing application                      : mkvmerge v8.3.0 ('Over the Horizon') 64bit
Writing library                          : libebml v1.3.1 + libmatroska v1.4.2
Attachments                              : Burtinomatic-DemiBold.ttf / I_Did_This.ttf / Latienne_Becker_Med.ttf / Latienne_Becker_Med_Italic.ttf / PROFFESIONAL.ttf / SchmaleGotischMK.ttf / SketchedCassiusBroken.ttf / SWZ721BR.TTF / wenzel3A.ttf

Video
ID                                       : 1
Format                                   : AVC
Format/Info                              : Advanced Video Codec
Format profile                           : High@L5.1
Format settings, CABAC                   : Yes
Format settings, ReFrames                : 16 frames
Codec ID                                 : V_MPEG4/ISO/AVC
Duration                                 : 24mn 11s
Bit rate                                 : 4 113 Kbps
Width                                    : 1 920 pixels
Height                                   : 1 080 pixels
Display aspect ratio                     : 16:9
Frame rate mode                          : Constant
Frame rate                               : 23.976 (24000/1001) fps
Color space                              : YUV
Chroma subsampling                       : 4:2:0
Bit depth                                : 8 bits
Scan type                                : Progressive
Bits/(Pixel*Frame)                       : 0.083
Stream size                              : 712 MiB (65%)
Writing library                          : x264 core 148 r2692kMod 64f4e24
Encoding settings                        : cabac=1 / ref=16 / deblock=1:0:0 / analyse=0x3:0x133 / me=umh / subme=10 / psy=1 / fade_compensate=0.64 / psy_rd=1.00:0.00 / mixed_ref=1 / me_range=24 / chroma_me=1 / trellis=2 / 8x8dct=1 / cqm=0 / deadzone=21,11 / fast_pskip=1 / chroma_qp_offset=-2 / threads=3 / lookahead_threads=1 / sliced_threads=0 / nr=0 / decimate=1 / interlaced=0 / bluray_compat=0 / constrained_intra=0 / fgo=0 / bframes=8 / b_pyramid=2 / b_adapt=2 / b_bias=0 / direct=3 / weightb=1 / open_gop=0 / weightp=2 / keyint=960 / keyint_min=23 / scenecut=40 / intra_refresh=0 / rc_lookahead=60 / rc=crf / mbtree=1 / crf=16.0000 / qcomp=0.60 / qpmin=0 / qpmax=69 / qpstep=4 / ip_ratio=1.40 / aq=1:1.08
Language                                 : English
Default                                  : Yes
Forced                                   : No

Audio #1
ID                                       : 2
Format                                   : FLAC
Format/Info                              : Free Lossless Audio Codec
Codec ID                                 : A_FLAC
Duration                                 : 24mn 11s
Bit rate mode                            : Variable
Bit rate                                 : 1 905 Kbps
Channel(s)                               : 3 channels
Channel positions                        : Front: L R, LFE
Sampling rate                            : 48.0 KHz
Frame rate                               : 11.719 fps (4096 spf)
Bit depth                                : 24 bits
Stream size                              : 330 MiB (30%)
Writing library                          : libFLAC 1.2.1 (UTC 2007-09-17)
Language                                 : Japanese
Default                                  : Yes
Forced                                   : No

Audio #2
ID                                       : 3
Format                                   : AAC
Format/Info                              : Advanced Audio Codec
Format profile                           : LC
Codec ID                                 : A_AAC
Duration                                 : 24mn 11s
Bit rate                                 : 152 Kbps
Channel(s)                               : 2 channels
Channel positions                        : Front: L R
Sampling rate                            : 48.0 KHz
Frame rate                               : 46.875 fps (1024 spf)
Compression mode                         : Lossy
Delay relative to video                  : 20ms
Stream size                              : 26.3 MiB (2%)
Language                                 : Japanese
Default                                  : No
Forced                                   : No

Audio #3
ID                                       : 4
Format                                   : AAC
Format/Info                              : Advanced Audio Codec
Format profile                           : LC
Codec ID                                 : A_AAC
Duration                                 : 24mn 11s
Bit rate                                 : 149 Kbps
Channel(s)                               : 2 channels
Channel positions                        : Front: L R
Sampling rate                            : 48.0 KHz
Frame rate                               : 46.875 fps (1024 spf)
Compression mode                         : Lossy
Delay relative to video                  : 20ms
Stream size                              : 25.8 MiB (2%)
Language                                 : Japanese
Default                                  : No
Forced                                   : No

Text #1
ID                                       : 5
Format                                   : ASS
Codec ID                                 : S_TEXT/ASS
Codec ID/Info                            : Advanced Sub Station Alpha
Duration                                 : 24mn 9s
Bit rate                                 : 280 bps
Count of elements                        : 659
Compression mode                         : Lossless
Stream size                              : 49.7 KiB (0%)
Language                                 : English
Default                                  : Yes
Forced                                   : No

Text #2
ID                                       : 6
Format                                   : ASS
Codec ID                                 : S_TEXT/ASS
Codec ID/Info                            : Advanced Sub Station Alpha
Duration                                 : 24mn 9s
Bit rate                                 : 284 bps
Count of elements                        : 662
Compression mode                         : Lossless
Stream size                              : 50.4 KiB (0%)
Language                                 : goh
Default                                  : No
Forced                                   : No
beta
Anime DDL+NZB mirror
Current Time: 14/08/2022 18:28



About/FAQs

Discord