File Size608.0 MB (637,516,289 bytes)
DownloadClickNUpload | DownloadGG | KrakenFiles
MultiUp: Part1
  • BdUpload
  • DownAce
  • Fichier
  • FileCloud
  • Filerio
  • FilesCdn
  • IndiShare
  • Kbagi
  • Turbobit
  • UpToBox
  • Uppit
, Part2
  • BdUpload
  • DownAce
  • Fichier
  • FileCloud
  • Filerio
  • FilesCdn
  • IndiShare
  • Kbagi
  • Turbobit
  • UpToBox
  • Uppit

ZippyShare: Part1, Part2
HashesCRC32: D33677F4, MD5: 1F4DAB14B54A34D8ECFC105BCAA5F62F, SHA1: 58B41C91E9E121A6A1669D6509D75BABEBE5AC54, SHA256: 0A772945207FC3425EAE467FAD6EDD87623554C0B503578341DB47FC0B03137D, ED2K: 28C55796CA76F2B10BF94F0F53744ACD
Screenshots
screenshotscreenshotscreenshotscreenshotscreenshot
SubtitlesAll Attachments | [neoHEVC] Dialogue [eng, ASS], [neoHEVC] Signs/Songs [enm, ASS]
Additional Info
General
Unique ID                                : 47423385353414123443836739603186764969 (0x23AD696B2D37601DE6890437885ECCA9)
Complete name                            : [_] Aharen-san wa Hakarenai - S01E08 (BD 1080p HEVC FLAC-AAC Dual-Audio).mkv
Format                                   : Matroska
Format version                           : Version 4
File size                                : 608 MiB
Duration                                 : 24 min 12 s
Overall bit rate mode                    : Variable
Overall bit rate                         : 3 510 kb/s
Encoded date                             : UTC 2022-10-16 18:38:08
Writing application                      : mkvmerge v71.1.0 ('Fortitude') 64-bit
Writing library                          : libebml v1.4.4 + libmatroska v1.7.1
Attachments                              : CRONOSPRO-BOLD.OTF / CRONOSPRO-BOLDIT.OTF / octarine.bold.otf / Passing Notes.ttf / Pixeboy-z8XGD.ttf / rabiohead.ttf / snow-drop.regular.otf / TheLima-K7GXZ.otf / alessia.regular.otf

Video
ID                                       : 1
Format                                   : HEVC
Format/Info                              : High Efficiency Video Coding
Format profile                           : Main 10@L4.1@High
Codec ID                                 : V_MPEGH/ISO/HEVC
Duration                                 : 24 min 12 s
Bit rate                                 : 1 986 kb/s
Width                                    : 1 920 pixels
Height                                   : 1 080 pixels
Display aspect ratio                     : 16:9
Frame rate mode                          : Variable
Frame rate                               : 23.976 FPS
Color space                              : YUV
Chroma subsampling                       : 4:2:0
Bit depth                                : 10 bits
Bits/(Pixel*Frame)                       : 0.040
Stream size                              : 344 MiB (57%)
Title                                    : lolice-EC
Writing library                          : x265 3.5+97-ga456c6e73+3-g87155154d:[Windows][clang 14.0.4][64 bit] Kyouko 10bit+8bit+12bit
Encoding settings                        : rc=crf / crf=16.0000 / qcomp=0.65 / qpstep=4 / stats-write=0 / stats-read=0 / vbv-maxrate=40000 / vbv-bufsize=40000 / vbv-init=0.9 / min-vbv-fullness=50.0 / max-vbv-fullness=80.0 / crf-max=0.0 / crf-min=0.0 / qscale-mode=0 / no-lossless / no-cu-lossless / aq-mode=5 / no-limit-aq1 / aq-strength=0.80 / aq-bias-strength=1.00 / limit-aq1-strength=1.00 / cbqpoffs=-2 / crqpoffs=-3 / ipratio=1.40 / pbratio=1.20 / psy-rd=1.80 / psy-rdoq=0.80 / psy-bscale=300 / psy-pscale=256 / psy-iscale=96 / deblock=-1:-1 / ref=4 / limit-refs=1 / limit-modes / bframes=8 / b-adapt=2 / bframe-bias=0 / b-pyramid / b-intra / weightp / weightb / min-keyint=1 / max-keyint=360 / rc-lookahead=60 / gop-lookahead=0 / scenecut=40 / hist-scenecut=0 / radl=0 / max-cu-size=32 / min-cu-size=8 / me=2 / subme=4 / merange=40 / rdoq-level=2 / rd=5 / rdpenalty=0 / dynamic-rd=0.00 / no-rd-refine / ----- / cutree / cutree-strength=1.75 / cutree-minqpoffs=-69.00 / cutree-maxqpoffs=69.00 / no-sao / no-rect / no-amp / no-open-gop / wpp / no-pmode / no-pme / no-psnr / no-ssim / nr-intra=0 / nr-inter=0 / no-constrained-intra / no-strong-intra-smoothing / max-tu-size=32 / tu-inter-depth=3 / tu-intra-depth=3 / limit-tu=2 / qg-size=8 / qpmax=69 / qpmin=0 / ----- / cpuid=1111039 / frame-threads=5 / numa-pools=32 / log-level=2 / input-csp=1 / input-res=1920x1080 / interlace=0 / level-idc=41 / high-tier=1 / uhd-bd=0 / no-allow-non-conformance / no-repeat-headers / no-aud / no-hrd / info / hash=0 / no-temporal-layers / lookahead-slices=0 / no-splice / no-intra-refresh / no-ssim-rd / signhide / no-tskip / max-merge=3 / temporal-mvp / no-frame-dup / hme / Level / merange / L0,L1,L2=16,24,40 / no-analyze-src-pics / no-sao-non-deblock / selective-sao=0 / no-early-skip / no-rskip / no-fast-intra / no-tskip-fast / no-splitrd-skip / zone-count=0 / no-strict-cbr / no-rc-grain / no-const-vbv / sar=0 / overscan=0 / videoformat=5 / range=0 / colorprim=2 / transfer=2 / colormatrix=2 / chromaloc=0 / display-window=0 / cll=0,0 / min-luma=0 / max-luma=1023 / log2-max-poc-lsb=8 / vui-timing-info / vui-hrd-info / slices=1 / no-opt-qp-pps / no-opt-ref-list-length-pps / no-multi-pass-opt-rps / scenecut-bias=0.05 / hist-threshold=0.03 / no-opt-cu-delta-qp / no-aq-motion / no-hdr10 / no-hdr10-opt / no-dhdr10-opt / no-idr-recovery-sei / analysis-reuse-level=0 / analysis-save-reuse-level=0 / analysis-load-reuse-level=0 / scale-factor=0 / refine-intra=0 / refine-inter=0 / refine-mv=1 / refine-ctu-distortion=0 / no-limit-sao / ctu-info=0 / no-lowpass-dct / refine-analysis-type=0 / copy-pic=1 / max-ausize-factor=1.0 / no-dynamic-refine / no-single-sei / no-hevc-aq / no-svt / no-field / qp-adaptation-range=1.00 / scenecut-aware-qp=0conformance-window-offsets / right=0 / bottom=0 / decoder-max-rate=0 / no-vbv-live-multi-pass
Language                                 : Japanese
Default                                  : Yes
Forced                                   : No

Audio #1
ID                                       : 2
Format                                   : FLAC
Format/Info                              : Free Lossless Audio Codec
Codec ID                                 : A_FLAC
Duration                                 : 24 min 12 s
Bit rate mode                            : Variable
Bit rate                                 : 1 370 kb/s
Channel(s)                               : 2 channels
Channel layout                           : L R
Sampling rate                            : 48.0 kHz
Frame rate                               : 10.417 FPS (4608 SPF)
Bit depth                                : 24 bits
Compression mode                         : Lossless
Stream size                              : 237 MiB (39%)
Title                                    : FLAC 2.0
Writing library                          : Lavf59.27.100
Language                                 : Japanese
Default                                  : Yes
Forced                                   : No

Audio #2
ID                                       : 3
Format                                   : AAC LC
Format/Info                              : Advanced Audio Codec Low Complexity
Codec ID                                 : A_AAC-2
Duration                                 : 23 min 56 s
Bit rate                                 : 128 kb/s
Channel(s)                               : 2 channels
Channel layout                           : L R
Sampling rate                            : 44.1 kHz
Frame rate                               : 43.066 FPS (1024 SPF)
Compression mode                         : Lossy
Stream size                              : 21.9 MiB (4%)
Title                                    : AAC 2.0
Language                                 : English
Default                                  : No
Forced                                   : No

Text #1
ID                                       : 4
Format                                   : ASS
Codec ID                                 : S_TEXT/ASS
Codec ID/Info                            : Advanced Sub Station Alpha
Duration                                 : 23 min 52 s
Bit rate                                 : 8 917 b/s
Count of elements                        : 9016
Compression mode                         : Lossless
Stream size                              : 1.52 MiB (0%)
Title                                    : [neoHEVC] Dialogue
Language                                 : English
Default                                  : Yes
Forced                                   : No

Text #2
ID                                       : 5
Format                                   : ASS
Codec ID                                 : S_TEXT/ASS
Codec ID/Info                            : Advanced Sub Station Alpha
Duration                                 : 21 min 56 s
Bit rate                                 : 9 596 b/s
Count of elements                        : 8678
Compression mode                         : Lossless
Stream size                              : 1.51 MiB (0%)
Title                                    : [neoHEVC] Signs/Songs
Language                                 : enm
Default                                  : No
Forced                                   : No

Menu
00:00:00.000                             : :Episode 8: Time for the Summer Festival, Huh? - Part A
00:01:27.000                             : :OP
00:02:57.000                             : :Episode 8: Time for the Summer Festival, Huh? - Part B
00:09:51.500                             : :Episode 8: Time for the Summer Festival, Huh? - Part C
00:21:54.800                             : :ED
00:23:25.000                             : :Episode 8: Time for the Summer Festival, Huh? - Part D

Other Files in this Torrent
[_] Aharen-san wa Hakarenai - S01E08 (BD 1080p HEVC FLAC-AAC Dual-Audio).mkv
beta
Anime DDL+NZB mirror
Current Time: 15/06/2024 14:07



About/FAQs

Discord