File Size298.5 MB (313,025,431 bytes)
DownloadAnonFiles | ClickNUpload | DownloadGG | KrakenFiles | MultiUp
  • BdUpload
  • DownAce
  • Fichier
  • FileCloud
  • Filerio
  • FilesCdn
  • IndiShare
  • Kbagi
  • Turbobit
  • UpToBox
  • Uppit
| ZippyShare
HashesCRC32: 6325EF6D, MD5: CDBD31585A46832833769858079B9E50, SHA1: 3FD5B4E0A2C41417A79FFB0D62B96F6F7E332198, SHA256: 3279100FC40749859A8B282EB680F61E60B20E7A316FE6023AFF2537DB68194C, ED2K: C2480A624E04366AB186B4D1268DB911
Screenshots
screenshotscreenshotscreenshotscreenshotscreenshot
Additional Info
General
Complete name                            : 927.mp4
Format                                   : MPEG-4
Format profile                           : Base Media
Codec ID                                 : isom (isom/iso2/avc1/mp41)
File size                                : 299 MiB
Duration                                 : 23 min 51 s
Overall bit rate mode                    : Variable
Overall bit rate                         : 1 749 kb/s
Writing application                      : Lavf58.76.100

Video
ID                                       : 1
Format                                   : AVC
Format/Info                              : Advanced Video Codec
Format profile                           : Main@L3.1
Format settings                          : CABAC / 4 Ref Frames
Format settings, CABAC                   : Yes
Format settings, Reference frames        : 4 frames
Codec ID                                 : avc1
Codec ID/Info                            : Advanced Video Coding
Duration                                 : 23 min 51 s
Bit rate mode                            : Variable
Bit rate                                 : 1 550 kb/s
Maximum bit rate                         : 11.2 Mb/s
Width                                    : 1 280 pixels
Height                                   : 720 pixels
Display aspect ratio                     : 16:9
Frame rate mode                          : Constant
Frame rate                               : 25.000 FPS
Color space                              : YUV
Chroma subsampling                       : 4:2:0
Bit depth                                : 8 bits
Scan type                                : Progressive
Bits/(Pixel*Frame)                       : 0.067
Stream size                              : 265 MiB (89%)
Color range                              : Limited
Color primaries                          : BT.709
Transfer characteristics                 : BT.709
Matrix coefficients                      : BT.709
Codec configuration box                  : avcC

Audio
ID                                       : 2
Format                                   : AAC LC
Format/Info                              : Advanced Audio Codec Low Complexity
Codec ID                                 : mp4a-40-2
Duration                                 : 23 min 51 s
Bit rate mode                            : Constant
Bit rate                                 : 192 kb/s
Channel(s)                               : 2 channels
Channel layout                           : L R
Sampling rate                            : 48.0 kHz
Frame rate                               : 46.875 FPS (1024 SPF)
Compression mode                         : Lossy
Stream size                              : 32.8 MiB (11%)
Default                                  : Yes
Alternate group                          : 1

Other Files in this Torrent
927.mp4
beta
Anime DDL+NZB mirror
Current Time: 24/07/2024 17:48



About/FAQs

Discord