File Size469.3 MB (492,102,703 bytes)
DownloadClickNUpload | DownloadGG | KrakenFiles | MultiUp
  • BdUpload
  • DownAce
  • Fichier
  • FileCloud
  • Filerio
  • FilesCdn
  • IndiShare
  • Kbagi
  • Turbobit
  • UpToBox
  • Uppit
| ZippyShare
HashesCRC32: 860B7AFF, MD5: 2505FD714CC21D9F2895841205AC2888, SHA1: 54573CC0B6930705889324A2B3E8AED58E2F29B8, SHA256: 85F8D73C374285C186325EAE012EEB6A2596AD8DE736BCB599E20CD0AFF26F34, ED2K: A796B85A2A0ED0BF14054D8BD6DAB2AA
Screenshots
screenshotscreenshotscreenshotscreenshotscreenshot
Additional Info
General
Complete name                            : 898.mp4
Format                                   : MPEG-4
Format profile                           : Base Media
Codec ID                                 : isom (isom/iso2/mp41)
File size                                : 469 MiB
Duration                                 : 23 min 31 s
Overall bit rate                         : 2 788 kb/s
Writing application                      : Lavf58.76.100

Video
ID                                       : 1
Format                                   : HEVC
Format/Info                              : High Efficiency Video Coding
Format profile                           : Main@L3.1@Main
Codec ID                                 : hev1
Codec ID/Info                            : High Efficiency Video Coding
Duration                                 : 23 min 31 s
Bit rate                                 : 2 590 kb/s
Width                                    : 1 280 pixels
Height                                   : 720 pixels
Display aspect ratio                     : 16:9
Frame rate mode                          : Constant
Frame rate                               : 23.976 (24000/1001) FPS
Color space                              : YUV
Chroma subsampling                       : 4:2:0
Bit depth                                : 8 bits
Scan type                                : Progressive
Bits/(Pixel*Frame)                       : 0.117
Stream size                              : 436 MiB (93%)
Color range                              : Limited
Color primaries                          : BT.709
Transfer characteristics                 : BT.709
Matrix coefficients                      : BT.709
Codec configuration box                  : hvcC

Audio
ID                                       : 2
Format                                   : AAC LC
Format/Info                              : Advanced Audio Codec Low Complexity
Codec ID                                 : mp4a-40-2
Duration                                 : 23 min 31 s
Bit rate mode                            : Constant
Bit rate                                 : 192 kb/s
Channel(s)                               : 2 channels
Channel layout                           : L R
Sampling rate                            : 48.0 kHz
Frame rate                               : 46.875 FPS (1024 SPF)
Compression mode                         : Lossy
Stream size                              : 32.3 MiB (7%)
Default                                  : Yes
Alternate group                          : 1

Other Files in this Torrent
898.mp4
beta
Anime DDL+NZB mirror
Current Time: 24/07/2024 19:34



About/FAQs

Discord