File Size364.7 MB (382,454,858 bytes)
DownloadAnonFiles | ClickNUpload | DropAPK | Free | MultiUp
  • BdUpload
  • DownAce
  • Fichier
  • FileCloud
  • Filerio
  • FilesCdn
  • IndiShare
  • Kbagi
  • Turbobit
  • UpToBox
  • Uppit
| SolidFiles | ZippyShare
HashesCRC32: BC4073D9, MD5: 9C87B2C870C45C9FA09985435DBD202C, SHA1: EBBFEA21046C2C7CDDDE7740F01E2FC0B7776794, SHA256: AF8A5C416CDF417D9DCA88E88CE945A422D22D2329724C9C6F569731CF3871A4, ED2K: 4659638B1E088A5E422E22DDF17F4BD7
Screenshots
screenshotscreenshot
Additional Info
General
Unique ID                                : 214735231646266181114283996205470695840 (0xA18C80538252C0C9CE7CBE02BC4BC1A0)
Complete name                            : [0m0] Kaifuku Jutsushi no Yarinaoshi - 01 [1080p HEVC x265 10Bit][AAC].mkv
Format                                   : Matroska
Format version                           : Version 4
File size                                : 365 MiB
Duration                                 : 1 min 30 s
Overall bit rate                         : 34.0 Mb/s
Movie name                               : Attack On 2020 The Final Season - ANIME OPENING
Encoded date                             : UTC 2021-01-13 20:16:24
Writing application                      : mkvmerge v52.0.0 ('Secret For The Mad') 64-bit
Writing library                          : libebml v1.4.1 + libmatroska v1.6.2

Video
ID                                       : 1
Format                                   : AVC
Format/Info                              : Advanced Video Codec
Format profile                           : High 10@L4
Format settings                          : CABAC / 4 Ref Frames
Format settings, CABAC                   : Yes
Format settings, ReFrames                : 4 frames
Codec ID                                 : V_MPEG4/ISO/AVC
Duration                                 : 1 min 29 s
Bit rate                                 : 33.9 Mb/s
Width                                    : 1 920 pixels
Height                                   : 1 080 pixels
Display aspect ratio                     : 16:9
Frame rate mode                          : Constant
Frame rate                               : 25.000 FPS
Color space                              : YUV
Chroma subsampling                       : 4:2:0
Bit depth                                : 10 bits
Scan type                                : Progressive
Bits/(Pixel*Frame)                       : 0.654
Stream size                              : 363 MiB (100%)
Writing library                          : x264M - core 161 r3027 4121277
Encoding settings                        : cabac=1 / ref=2 / deblock=1:-2:-2 / analyse=0x3:0x113 / me=hex / subme=6 / psy=1 / psy_rd=1.00:0.25 / mixed_ref=1 / me_range=16 / chroma_me=1 / trellis=1 / 8x8dct=1 / cqm=0 / deadzone=6,6 / fast_pskip=1 / chroma_qp_offset=-4 / threads=9 / lookahead_threads=1 / sliced_threads=0 / nr=0 / decimate=0 / interlaced=0 / bluray_compat=0 / constrained_intra=0 / bframes=3 / b_pyramid=2 / b_adapt=1 / b_bias=0 / direct=1 / weightb=1 / open_gop=0 / weightp=1 / keyint=250 / keyint_min=25 / scenecut=40 / intra_refresh=0 / rc_lookahead=30 / rc=crf / mbtree=1 / crf=3.0 / qcomp=0.80 / qpmin=0 / qpmax=81 / qpstep=4 / ip_ratio=1.10 / aq=1:0.50
Default                                  : Yes
Forced                                   : No
Color range                              : Limited
Color primaries                          : BT.709
Transfer characteristics                 : BT.709
Matrix coefficients                      : BT.709

Audio
ID                                       : 2
Format                                   : AAC LC
Format/Info                              : Advanced Audio Codec Low Complexity
Codec ID                                 : A_AAC-2
Duration                                 : 1 min 30 s
Bit rate                                 : 128 kb/s
Channel(s)                               : 2 channels
Channel layout                           : L R
Sampling rate                            : 44.1 kHz
Frame rate                               : 43.066 FPS (1024 SPF)
Compression mode                         : Lossy
Stream size                              : 1.37 MiB (0%)
Title                                    : ISO Media file produced by Google Inc.
Language                                 : English
Default                                  : No
Forced                                   : No
beta
Anime DDL+NZB mirror
Current Time: 27/02/2021 04:07



About/FAQs