File Size192.3 MB (201,689,899 bytes)
DownloadAnonFiles | ClickNUpload | DownloadGG | KrakenFiles | MultiUp
  • BdUpload
  • DownAce
  • Fichier
  • FileCloud
  • Filerio
  • FilesCdn
  • IndiShare
  • Kbagi
  • Turbobit
  • UpToBox
  • Uppit
| ZippyShare
HashesCRC32: F5CC979A, MD5: 60281CEF084CC37962E1805EE02935F9, SHA1: CDD02D39939B8146E5666D68C0213344E3954B57, SHA256: A10A2059C54E312C87A2CF002B0E8DD2D488B68DAD6C28363051E98F6863D2DE, ED2K: 857DFE1E0241898A64E0F1817A3707F2
Screenshots
screenshotscreenshotscreenshotscreenshotscreenshot
SubtitlesAll Attachments | English [eng, ASS], ภาษาไทย [tha, ASS], Tiếng Việt [vie, ASS], Bahasa Indonesia [ind, ASS], Bahasa Melayu [may, ASS], 中文(繁体) [chi, ASS], 中文(简体)| 繁化姬 [chi, ASS]
Additional Info
General
Unique ID                                : 47274869476838347680294786331048715555 (0x2390CF054677934DCCBDA6F03D4CA523)
Complete name                            : [神楽坂 まひろ] 为了养老金去异世界存八万金 - 08 (B-Global 1920x1080 HEVC AAC MKV) [F5CC979A].mkv
Format                                   : Matroska
Format version                           : Version 4
File size                                : 192 MiB
Duration                                 : 23 min 24 s
Overall bit rate                         : 1 149 kb/s
Encoded date                             : UTC 2023-02-26 03:13:39
Writing application                      : mkvmerge v74.0.0 ('You Oughta Know') 64-bit
Writing library                          : libebml v1.4.4 + libmatroska v1.7.1
Attachments                              : Arial.ttf / FZLanTYK_Zhun.ttf / thsarabun.ttf / NotoSans-Regular.ttf / trebuc.ttf

Video
ID                                       : 1
Format                                   : HEVC
Format/Info                              : High Efficiency Video Coding
Format profile                           : Main@L5@Main
Codec ID                                 : V_MPEGH/ISO/HEVC
Duration                                 : 23 min 23 s
Bit rate                                 : 898 kb/s
Width                                    : 1 920 pixels
Height                                   : 1 080 pixels
Display aspect ratio                     : 16:9
Frame rate mode                          : Constant
Frame rate                               : 23.976 (24000/1001) FPS
Original frame rate                      : 23.976 (23976/1000) FPS
Color space                              : YUV
Chroma subsampling                       : 4:2:0
Bit depth                                : 8 bits
Bits/(Pixel*Frame)                       : 0.018
Stream size                              : 150 MiB (78%)
Default                                  : Yes
Forced                                   : No
Color range                              : Limited
Color primaries                          : BT.709
Transfer characteristics                 : BT.709
Matrix coefficients                      : BT.709

Audio
ID                                       : 2
Format                                   : AAC LC
Format/Info                              : Advanced Audio Codec Low Complexity
Codec ID                                 : A_AAC-2
Duration                                 : 23 min 24 s
Bit rate                                 : 175 kb/s
Channel(s)                               : 2 channels
Channel layout                           : L R
Sampling rate                            : 48.0 kHz
Frame rate                               : 46.875 FPS (1024 SPF)
Compression mode                         : Lossy
Stream size                              : 29.2 MiB (15%)
Default                                  : Yes
Forced                                   : No

Text #1
ID                                       : 3
Format                                   : ASS
Codec ID                                 : S_TEXT/ASS
Codec ID/Info                            : Advanced Sub Station Alpha
Duration                                 : 21 min 41 s
Bit rate                                 : 130 b/s
Count of elements                        : 355
Compression mode                         : Lossless
Stream size                              : 20.7 KiB (0%)
Title                                    : English
Language                                 : English
Default                                  : Yes
Forced                                   : No

Text #2
ID                                       : 4
Format                                   : ASS
Codec ID                                 : S_TEXT/ASS
Codec ID/Info                            : Advanced Sub Station Alpha
Duration                                 : 21 min 39 s
Bit rate                                 : 255 b/s
Count of elements                        : 395
Compression mode                         : Lossless
Stream size                              : 40.6 KiB (0%)
Title                                    : ภาษาไทย
Language                                 : Thai
Default                                  : Yes
Forced                                   : No

Text #3
ID                                       : 5
Format                                   : ASS
Codec ID                                 : S_TEXT/ASS
Codec ID/Info                            : Advanced Sub Station Alpha
Duration                                 : 20 min 17 s
Bit rate                                 : 174 b/s
Count of elements                        : 370
Compression mode                         : Lossless
Stream size                              : 25.9 KiB (0%)
Title                                    : Tiếng Việt
Language                                 : Vietnamese
Default                                  : Yes
Forced                                   : No

Text #4
ID                                       : 6
Format                                   : ASS
Codec ID                                 : S_TEXT/ASS
Codec ID/Info                            : Advanced Sub Station Alpha
Duration                                 : 21 min 41 s
Bit rate                                 : 131 b/s
Count of elements                        : 354
Compression mode                         : Lossless
Stream size                              : 21.0 KiB (0%)
Title                                    : Bahasa Indonesia
Language                                 : Indonesian
Default                                  : Yes
Forced                                   : No

Text #5
ID                                       : 7
Format                                   : ASS
Codec ID                                 : S_TEXT/ASS
Codec ID/Info                            : Advanced Sub Station Alpha
Duration                                 : 21 min 40 s
Bit rate                                 : 139 b/s
Count of elements                        : 361
Compression mode                         : Lossless
Stream size                              : 22.2 KiB (0%)
Title                                    : Bahasa Melayu
Language                                 : Malay
Default                                  : Yes
Forced                                   : No

Text #6
ID                                       : 8
Format                                   : ASS
Codec ID                                 : S_TEXT/ASS
Codec ID/Info                            : Advanced Sub Station Alpha
Duration                                 : 23 min 16 s
Bit rate                                 : 114 b/s
Count of elements                        : 404
Compression mode                         : Lossless
Stream size                              : 19.5 KiB (0%)
Title                                    : 中文(繁体)
Language                                 : Chinese
Default                                  : Yes
Forced                                   : No

Text #7
ID                                       : 9
Format                                   : ASS
Codec ID                                 : S_TEXT/ASS
Codec ID/Info                            : Advanced Sub Station Alpha
Duration                                 : 23 min 16 s
Bit rate                                 : 114 b/s
Count of elements                        : 404
Compression mode                         : Lossless
Stream size                              : 19.5 KiB (0%)
Title                                    : 中文(简体)| 繁化姬
Language                                 : Chinese
Default                                  : Yes
Forced                                   : No
beta
Anime DDL+NZB mirror
Current Time: 17/04/2024 02:05



About/FAQs

Discord