File Size362.9 MB (380,546,047 bytes)
DownloadClickNUpload | Go4Up | Jheberg | MultiUp
  • ClickNupload
  • Fichier
  • Filerio
  • Free
  • Fufox
  • HugeFiles
  • Mightyupload
  • ToutBox
  • Turbobit
  • UpToBox
  • Uplea
  • UploadBaz
  • Uploadable
  • Uploaded
  • Uppit
  • Userscloud
| OpenLoad | SolidFiles
Sendspace: Part1, Part2
HashesCRC32: D5FD85A6, MD5: 8806CE0D6D63473E5E871609086D60A3, SHA1: AEE34AB2C0B3439B45A65465E20137BA09BDE29C, SHA256: FCA8942E5A9D021C2D1D7C012AE627B11BAFC265CD4E163038E70AF236147D89, ED2K: 6A651DA68EAC5D93C0E21D4BA4BBCC17
Screenshots
screenshotscreenshotscreenshotscreenshotscreenshot
Additional Info
General
Unique ID                                : 213484092409846610342230800213583060349 (0xA09B8A66383015D0BEFF2F10178BDD7D)
Complete name                            : 07 - Izayoi Seeing.mkv
Format                                   : Matroska
Format version                           : Version 2
File size                                : 363 MiB
Duration                                 : 24 min 48 s
Overall bit rate                         : 2 045 kb/s
Encoded date                             : UTC 2016-03-09 16:17:40
Writing application                      : mkvmerge v8.5.2 ('Crosses') 32bit
Writing library                          : libebml v1.3.3 + libmatroska v1.4.4

Video
ID                                       : 1
Format                                   : AVC
Format/Info                              : Advanced Video Codec
Format profile                           : High 10@L3.1
Format settings, CABAC                   : Yes
Format settings, ReFrames                : 4 frames
Codec ID                                 : V_MPEG4/ISO/AVC
Duration                                 : 24 min 48 s
Bit rate                                 : 1 723 kb/s
Width                                    : 1 280 pixels
Height                                   : 720 pixels
Display aspect ratio                     : 16:9
Frame rate mode                          : Constant
Frame rate                               : 23.976 (24000/1001) FPS
Color space                              : YUV
Chroma subsampling                       : 4:2:0
Bit depth                                : 10 bits
Scan type                                : Progressive
Bits/(Pixel*Frame)                       : 0.078
Stream size                              : 306 MiB (84%)
Writing library                          : x264 core 148 r2638 7599210
Encoding settings                        : cabac=1 / ref=3 / deblock=1:1:-1 / analyse=0x3:0x113 / me=hex / subme=7 / psy=1 / psy_rd=1.00:0.00 / mixed_ref=1 / me_range=16 / chroma_me=1 / trellis=1 / 8x8dct=1 / cqm=0 / deadzone=21,11 / fast_pskip=1 / chroma_qp_offset=-2 / threads=3 / lookahead_threads=1 / sliced_threads=0 / nr=0 / decimate=1 / interlaced=0 / bluray_compat=0 / constrained_intra=0 / bframes=3 / b_pyramid=2 / b_adapt=1 / b_bias=0 / direct=1 / weightb=1 / open_gop=0 / weightp=2 / keyint=240 / keyint_min=23 / scenecut=40 / intra_refresh=0 / rc_lookahead=40 / rc=crf / mbtree=1 / crf=16.0 / qcomp=0.60 / qpmin=0 / qpmax=81 / qpstep=4 / ip_ratio=1.40 / aq=1:1.00
Language                                 : English
Default                                  : Yes
Forced                                   : No

Audio
ID                                       : 2
Format                                   : AAC
Format/Info                              : Advanced Audio Codec
Format profile                           : LC
Codec ID                                 : A_AAC
Duration                                 : 24 min 48 s
Bit rate                                 : 320 kb/s
Channel(s)                               : 2 channels
Channel positions                        : Front: L R
Sampling rate                            : 48.0 kHz
Frame rate                               : 46.875 FPS (1024 spf)
Compression mode                         : Lossy
Delay relative to video                  : 9 ms
Stream size                              : 56.7 MiB (16%)
Language                                 : Japanese
Default                                  : Yes
Forced                                   : No

Menu
00:00:00.000                             : en:Avant
00:00:43.043                             : en:Opening
00:02:13.007                             : en:A Part
00:10:58.991                             : en:B Part
00:22:09.995                             : en:Ending
00:23:40.001                             : en:Preview

Other Files in this Torrent
07 - Izayoi Seeing.mkv
beta
Anime DDL+NZB mirror
Current Time: 24/05/2024 17:01



About/FAQs

Discord