File Size153.3 MB (160,790,681 bytes)
DownloadAnonFiles | ClickNUpload | DownloadGG | DropAPK | MultiUp
  • BdUpload
  • DownAce
  • Fichier
  • FileCloud
  • Filerio
  • FilesCdn
  • IndiShare
  • Kbagi
  • Turbobit
  • UpToBox
  • Uppit
| SolidFiles | ZippyShare
HashesCRC32: 6DE0E34D, MD5: 7126CFD1A671363A5E816BEF694B33A3, SHA1: CA2BB17A2EFBF455D3124778AE931910A497CCF1, SHA256: 842AC17D826BF478DDB97D108DCE587D68A2E994D105539466BC1BA10EE08FFF, ED2K: 8F7D7FDC2F2B9F097ABDD7EA060C2EC2
Screenshots
screenshotscreenshotscreenshotscreenshotscreenshot
SubtitlesAll Attachments | und [ASS]
Additional Info
General
Unique ID                                : 190593044269621778210122972317421883419 (0x8F62E296E6DC1049E3CF8E1E086B501B)
Complete name                            : 05 - School Fantasia.mkv
Format                                   : Matroska
Format version                           : Version 4
File size                                : 153 MiB
Duration                                 : 24 min 37 s
Overall bit rate mode                    : Variable
Overall bit rate                         : 871 kb/s
Encoded date                             : UTC 2019-10-30 15:30:18
Writing application                      : mkvmerge v34.0.0 ('Sight and Seen') 64-bit
Writing library                          : libebml v1.3.7 + libmatroska v1.5.0
Encoding Gui                             : Hybrid 2019.06.09.2

Video
ID                                       : 1
Format                                   : HEVC
Format/Info                              : High Efficiency Video Coding
Format profile                           : Main 10@L6.1@High
Codec ID                                 : V_MPEGH/ISO/HEVC
Duration                                 : 24 min 37 s
Bit rate                                 : 792 kb/s
Width                                    : 1 280 pixels
Height                                   : 720 pixels
Display aspect ratio                     : 16:9
Frame rate mode                          : Constant
Frame rate                               : 23.976 (24000/1001) FPS
Color space                              : YUV
Chroma subsampling                       : 4:2:0
Bit depth                                : 10 bits
Bits/(Pixel*Frame)                       : 0.036
Stream size                              : 140 MiB (91%)
Writing library                          : x265 3.1_RC1+1-10decf67c077:[Windows][GCC 9.1.0][64 bit] 10bit
Encoding settings                        : cpuid=1064959 / frame-threads=1 / numa-pools=2 / wpp / pmode / pme / no-psnr / no-ssim / log-level=2 / input-csp=1 / input-res=1280x720 / interlace=0 / total-frames=0 / level-idc=61 / high-tier=1 / uhd-bd=0 / ref=3 / no-allow-non-conformance / no-repeat-headers / annexb / no-aud / no-hrd / info / hash=0 / no-temporal-layers / open-gop / min-keyint=23 / keyint=250 / gop-lookahead=0 / bframes=4 / b-adapt=2 / b-pyramid / bframe-bias=0 / rc-lookahead=20 / lookahead-slices=4 / scenecut=40 / radl=0 / no-splice / no-intra-refresh / ctu=64 / min-cu-size=8 / no-rect / no-amp / max-tu-size=32 / tu-inter-depth=1 / tu-intra-depth=1 / limit-tu=0 / rdoq-level=2 / dynamic-rd=4.00 / no-ssim-rd / signhide / no-tskip / nr-intra=0 / nr-inter=0 / no-constrained-intra / strong-intra-smoothing / max-merge=2 / limit-refs=1 / limit-modes / me=1 / subme=2 / merange=57 / temporal-mvp / weightp / weightb / no-analyze-src-pics / deblock=1:1 / sao / no-sao-non-deblock / rd=2 / early-skip / rskip / no-fast-intra / no-tskip-fast / no-cu-lossless / no-b-intra / no-splitrd-skip / rdpenalty=0 / psy-rd=2.00 / psy-rdoq=0.00 / no-rd-refine / no-lossless / cbqpoffs=0 / crqpoffs=0 / rc=crf / crf=22.0 / qcomp=0.60 / qpstep=4 / stats-write=0 / stats-read=0 / vbv-maxrate=480000 / vbv-bufsize=480000 / vbv-init=0.9 / crf-max=0.0 / crf-min=0.0 / ipratio=1.40 / pbratio=1.30 / aq-mode=3 / aq-strength=0.70 / cutree / zone-count=0 / no-strict-cbr / qg-size=64 / no-rc-grain / qpmax=69 / qpmin=0 / no-const-vbv / sar=1 / overscan=0 / videoformat=5 / range=0 / colorprim=2 / transfer=2 / colormatrix=1 / chromaloc=0 / display-window=0cll=0,0 / min-luma=0 / max-luma=1023 / log2-max-poc-lsb=8 / vui-timing-info / vui-hrd-info / slices=1 / opt-qp-pps / opt-ref-list-length-pps / no-multi-pass-opt-rps / scenecut-bias=0.05 / no-opt-cu-delta-qp / no-aq-motion / no-hdr / no-hdr-opt / no-dhdr10-opt / no-idr-recovery-sei / analysis-reuse-level=5 / scale-factor=0 / refine-intra=0 / refine-inter=0 / refine-mv=0 / refine-ctu-distortion=0 / no-limit-sao / ctu-info=0 / no-lowpass-dct / refine-analysis-type=0 / copy-pic=1 / max-ausize-factor=1.0 / no-dynamic-refine / no-single-sei / no-hevc-aq / no-svt / no-field / qp-adaptation-range=2.00
Language                                 : English
Default                                  : Yes
Forced                                   : Yes
Color range                              : Limited
Matrix coefficients                      : BT.709

Audio
ID                                       : 2
Format                                   : Vorbis
Format settings, Floor                   : 1
Codec ID                                 : A_VORBIS
Duration                                 : 24 min 37 s
Bit rate mode                            : Variable
Bit rate                                 : 80.0 kb/s
Channel(s)                               : 2 channels
Sampling rate                            : 48.0 kHz
Frame rate                               : 66.276 FPS (724 SPF)
Compression mode                         : Lossy
Delay relative to video                  : 9 ms
Stream size                              : 13.3 MiB (9%)
Writing library                          : libVorbis (Now 100% fewer shells) (20180316 (Now 100% fewer shells))
Language                                 : Japanese
Default                                  : Yes
Forced                                   : No
Comment                                  : Processed by SoX

Text
ID                                       : 3
Format                                   : ASS
Codec ID                                 : S_TEXT/ASS
Codec ID/Info                            : Advanced Sub Station Alpha
Duration                                 : 21 min 58 s
Bit rate                                 : 125 b/s
Count of elements                        : 341
Compression mode                         : Lossless
Stream size                              : 20.2 KiB (0%)
Default                                  : No
Forced                                   : Yes

Menu
00:00:00.000                             : en:Avant - 00:00:00.000
00:01:41.017                             : en:Opening - 00:01:41.017
00:03:10.982                             : en:A Part - 00:03:10.982
00:12:39.008                             : en:B Part - 00:12:39.008
00:22:09.995                             : en:Ending - 00:22:09.995
00:23:40.001                             : en:Preview - 00:23:40.001

Other Files in this Torrent
05 - School Fantasia.mkv
beta
Anime DDL+NZB mirror
Current Time: 16/07/2024 14:53



About/FAQs

Discord